<?xml version="1.0" standalone="no"?>
<!DOCTYPE svg PUBLIC "-//W3C//DTD SVG 1.1//EN" "http://www.w3.org/Graphics/SVG/1.1/DTD/svg11.dtd" >
<svg xmlns="http://www.w3.org/2000/svg">
<metadata>Generated by IcoMoon</metadata>
<defs>
<font id="NNIcons" horiz-adv-x="512">
<font-face units-per-em="512" ascent="512" descent="0" />
<missing-glyph horiz-adv-x="512" />
<glyph unicode="&#x20;" d="" horiz-adv-x="0" />
<glyph unicode="&#xe001;" d="M0 416h512v-32h-512zM0 352h352v-32h-352zM0 288h512v-32h-512zM0 224h352v-32h-352zM0 160h512v-32h-512zM0 96h352v-32h-352z" />
<glyph unicode="&#xe002;" d="M0 416h512v-32h-512zM96 352h320v-32h-320zM96 224h320v-32h-320zM96 96h320v-32h-320zM0 288h512v-32h-512zM0 160h512v-32h-512z" />
<glyph unicode="&#xe003;" d="M0 416h512v-32h-512zM160 352h352v-32h-352zM0 288h512v-32h-512zM160 224h352v-32h-352zM0 160h512v-32h-512zM160 96h352v-32h-352z" />
<glyph unicode="&#xe004;" d="M0 352h512v-32h-512zM0 224h512v-32h-512zM0 96h512v-32h-512zM0 416h512v-32h-512zM0 288h512v-32h-512zM0 160h512v-32h-512z" />
<glyph unicode="&#xe005;" d="M380.931 0c56.863 103.016 66.444 260.153-156.931 254.912v-126.912l-192 192 192 192v-124.186c267.481 6.971 297.285-236.107 156.931-387.814z" />
<glyph unicode="&#xe006;" d="M288 387.814v124.186l192-192-192-192v126.912c-223.375 5.241-213.794-151.896-156.93-254.912-140.356 151.707-110.55 394.785 156.93 387.814z" />
<glyph unicode="&#xe007;" d="M512 320h-192l71.765 71.765c-36.265 36.263-84.48 56.235-135.765 56.235-51.285 0-99.5-19.972-135.765-56.235-36.263-36.265-56.235-84.48-56.235-135.765 0-51.285 19.972-99.5 56.235-135.765 36.265-36.263 84.48-56.235 135.765-56.235 51.285 0 99.5 19.972 135.764 56.236 3.028 3.027 5.93 6.146 8.728 9.334l48.16-42.141c-46.923-53.583-115.832-87.429-192.652-87.429-141.385 0-256 114.615-256 256 0 141.385 114.615 256 256 256 70.693 0 134.684-28.663 181.008-74.992l74.992 74.992v-192z" />
<glyph unicode="&#xe008;" d="M296 288h-8v96c0 52.935-43.065 96-96 96h-64c-52.935 0-96-43.065-96-96v-96h-8c-13.2 0-24-10.8-24-24v-240c0-13.2 10.8-24 24-24h272c13.2 0 24 10.8 24 24v240c0 13.2-10.8 24-24 24zM192 64h-64l13.92 69.6c-8.404 5.766-13.92 15.437-13.92 26.4 0 17.673 14.327 32 32 32 17.673 0 32-14.327 32-32 0-10.963-5.516-20.634-13.92-26.4l13.92-69.6zM224 288h-128v96c0 17.645 14.355 32 32 32h64c17.645 0 32-14.355 32-32v-96z" />
<glyph unicode="&#xe009;" d="M384 480h-64c-52.935 0-96-43.065-96-96v-96h-200c-13.2 0-24-10.8-24-24v-240c0-13.2 10.8-24 24-24h272c13.2 0 24 10.8 24 24v240c0 13.2-10.8 24-24 24h-8v96c0 17.645 14.355 32 32 32h64c17.645 0 32-14.355 32-32v-96h64v96c0 52.935-43.065 96-96 96zM192 64h-64l13.92 69.6c-8.404 5.766-13.92 15.437-13.92 26.4 0 17.673 14.327 32 32 32 17.673 0 32-14.327 32-32 0-10.963-5.516-20.634-13.92-26.4l13.92-69.6z" />
<glyph unicode="&#xe00a;" d="M512 207.953v96.094l-73.387 12.231c-2.979 9.066-6.611 17.834-10.847 26.25l43.227 60.517-67.948 67.949-60.413-43.152c-8.455 4.277-17.269 7.944-26.384 10.951l-12.201 73.207h-96.094l-12.201-73.208c-9.115-3.007-17.929-6.674-26.383-10.951l-60.414 43.152-67.949-67.949 43.227-60.518c-4.235-8.415-7.867-17.183-10.846-26.249l-73.387-12.23v-96.094l73.559-12.26c2.98-8.984 6.605-17.674 10.821-26.015l-43.374-60.724 67.949-67.948 60.827 43.447c8.301-4.175 16.945-7.764 25.882-10.717l12.289-73.736h96.094l12.289 73.737c8.937 2.953 17.581 6.542 25.883 10.716l60.826-43.446 67.948 67.948-43.372 60.723c4.216 8.341 7.839 17.031 10.82 26.016l73.559 12.259zM256 192c-35.346 0-64 28.653-64 64 0 35.346 28.654 64 64 64 35.347 0 64-28.654 64-64 0-35.347-28.653-64-64-64z" />
<glyph unicode="&#xe00b;" d="M256.001 512l-256.001-256h160v-255.999l192-0.001v256h160z" />
<glyph unicode="&#xe00c;" d="M512 256l-256 256v-160h-255.999l-0.001-192h256v-160z" />
<glyph unicode="&#xe00d;" d="M256 0l256 256h-160v255.999l-192 0.001v-256h-160z" />
<glyph unicode="&#xe00e;" d="M0 256l256-256v160h255.999l0.001 192h-256v160z" />
<glyph unicode="&#xe00f;" d="M480 512h-448c-17.6 0-32-14.399-32-32v-448c0-17.601 14.398-32 32-32h448c17.6 0 32 14.399 32 32v448c0 17.601-14.4 32-32 32zM480 32h-448v384h448v-384z" />
<glyph unicode="&#xe010;" d="M480 512h-448c-17.6 0-32-14.399-32-32v-448c0-17.601 14.398-32 32-32h448c17.6 0 32 14.399 32 32v448c0 17.601-14.4 32-32 32zM480 128h-448v352h448v-352z" />
<glyph unicode="&#xe011;" d="M256 0c141.385 0 256 114.615 256 256s-114.615 256-256 256-256-114.615-256-256 114.615-256 256-256zM256 464c114.875 0 208-93.125 208-208s-93.125-208-208-208-208 93.125-208 208 93.125 208 208 208zM400 384c8.8 0 16-7.2 16-16v-48c0-17.6-14.4-32-32-32h-64c-17.6 0-32 14.4-32 32h-64c0-17.6-14.4-32-32-32h-64c-17.6 0-32 14.4-32 32v48c0 8.8 7.2 16 16 16h96c8.8 0 16-7.2 16-16v-16h64v16c0 8.8 7.2 16 16 16h96zM256 128c46.604 0 87.386 24.909 109.773 62.139l27.44-16.467c-27.983-46.535-78.958-77.672-137.213-77.672-24.229 0-47.192 5.398-67.77 15.041l16.581 27.639c15.677-6.857 32.982-10.68 51.189-10.68z" />
<glyph unicode="&#xe012;" d="M256 0c141.385 0 256 114.615 256 256s-114.615 256-256 256-256-114.615-256-256 114.615-256 256-256zM256 464c114.875 0 208-93.125 208-208s-93.125-208-208-208-208 93.125-208 208 93.125 208 208 208zM128 352c0 17.673 14.327 32 32 32s32-14.327 32-32c0-17.673-14.327-32-32-32-17.673 0-32 14.327-32 32zM320 352c0 17.673 14.327 32 32 32s32-14.327 32-32c0-17.673-14.327-32-32-32-17.673 0-32 14.327-32 32zM352.049 198.37l41.164-24.698c-27.981-46.535-78.958-77.672-137.213-77.672s-109.232 31.137-137.213 77.672l41.164 24.698c19.587-32.574 55.271-54.37 96.049-54.37s76.462 21.796 96.049 54.37z" />
<glyph unicode="&#xe013;" d="M256 0c141.385 0 256 114.615 256 256s-114.615 256-256 256-256-114.615-256-256 114.615-256 256-256zM256 464c114.875 0 208-93.125 208-208s-93.125-208-208-208-208 93.125-208 208 93.125 208 208 208zM192 160c0 35.346 28.654 64 64 64s64-28.654 64-64c0-35.346-28.654-64-64-64-35.346 0-64 28.654-64 64zM320 336c0-26.51 14.327-48 32-48s32 21.49 32 48c0 26.51-14.327 48-32 48-17.673 0-32-21.49-32-48zM128 336c0-26.51 14.327-48 32-48s32 21.49 32 48c0 26.51-14.327 48-32 48-17.673 0-32-21.49-32-48z" />
<glyph unicode="&#xe014;" d="M512 216.778l-256 198.713-256-198.714v81.019l256 198.713 256-198.714zM448 224v-192h-128v128h-128v-128h-128v192l192 144z" />
<glyph unicode="&#xe015;" d="M256 512c-141.385 0-256-114.615-256-256s114.615-256 256-256 256 114.615 256 256-114.615 256-256 256zM224 416h64v-64h-64v64zM320 96h-128v32h32v128h-32v32h96v-160h32v-32z" />
<glyph unicode="&#xe016;" d="M505.216 92.624l-191.984 384c-10.832 21.68-32.976 35.376-57.232 35.376s-46.4-13.696-57.232-35.376l-191.984-384c-9.92-19.84-8.864-43.408 2.8-62.288 11.664-18.848 32.256-30.336 54.432-30.336h383.952c22.192 0 42.784 11.488 54.432 30.336 11.664 18.88 12.72 42.448 2.816 62.288zM287.968 80c0-8.848-7.152-16-16-16h-32c-8.848 0-16 7.152-16 16v32c0 8.848 7.152 16 16 16h32c8.848 0 16-7.152 16-16v-32zM287.968 208c0-8.848-7.152-16-16-16h-32c-8.848 0-16 7.152-16 16v160c0 8.832 7.152 16 16 16h32c8.848 0 16-7.168 16-16v-160z" />
<glyph unicode="&#xe017;" d="M256 512c-141.376 0-256-114.624-256-256s114.624-256 256-256 256 114.624 256 256-114.624 256-256 256zM384 224h-256v64h256v-64z" />
<glyph unicode="&#xe018;" d="M476.698 474.679l-2.014 2.021c-47.074 47.067-124.097 47.067-171.163 0l-109.053-109.068c-47.067-47.066-47.067-124.088 0-171.155l2.013-2.013c3.916-3.924 8.073-7.462 12.368-10.729l39.924 39.925c-4.651 2.747-9.063 6.036-13.058 10.030l-2.021 2.021c-25.557 25.549-25.557 67.136 0 92.695l109.064 109.056c25.558 25.559 67.137 25.559 92.693 0l2.021-2.012c25.55-25.558 25.55-67.146 0-92.695l-49.343-49.343c8.566-21.154 12.624-43.7 12.269-66.193l76.302 76.302c47.067 47.068 47.067 124.089-0.002 171.158zM315.521 317.533c-3.916 3.916-8.073 7.461-12.368 10.72l-39.924-39.916c4.652-2.748 9.063-6.037 13.058-10.031l2.021-2.020c25.558-25.558 25.558-67.136 0-92.694l-109.065-109.067c-25.559-25.551-67.138-25.551-92.694 0l-2.021 2.021c-25.549 25.56-25.549 67.138 0 92.694l49.344 49.343c-8.567 21.153-12.623 43.701-12.269 66.193l-76.301-76.299c-47.068-47.066-47.068-124.089 0-171.162l2.013-2.016c47.076-47.064 124.096-47.064 171.164 0l109.055 109.059c47.067 47.066 47.067 124.097 0 171.163l-2.013 2.012z" />
<glyph unicode="&#xe019;" d="M256 416c-111.659 0-208.441-65.021-256-160 47.559-94.979 144.341-160 256-160 111.657 0 208.439 65.021 256 160-47.558 94.979-144.343 160-256 160zM382.225 331.148c30.081-19.187 55.571-44.887 74.717-75.148-19.146-30.261-44.637-55.961-74.718-75.149-37.797-24.108-81.445-36.851-126.224-36.851-44.78 0-88.428 12.743-126.225 36.852-30.080 19.186-55.57 44.886-74.717 75.148 19.146 30.262 44.637 55.962 74.717 75.148 1.959 1.25 3.938 2.461 5.929 3.65-4.979-13.664-7.704-28.411-7.704-43.798 0-70.692 57.308-128 128-128s128 57.308 128 128c0 15.387-2.725 30.134-7.704 43.799 1.99-1.189 3.969-2.401 5.929-3.651zM256 307c0-26.51-21.49-48-48-48s-48 21.49-48 48 21.49 48 48 48 48-21.49 48-48z" />
<glyph unicode="&#xe01a;" d="M496.131 76.302l-121.276 103.147c-12.537 11.283-25.945 16.463-36.776 15.963 28.628 33.534 45.921 77.039 45.921 124.588 0 106.039-85.961 192-192 192-106.038 0-192-85.961-192-192 0-106.039 85.961-192 192-192 47.549 0 91.054 17.293 124.588 45.922-0.5-10.831 4.68-24.239 15.963-36.776l103.147-121.276c17.661-19.623 46.511-21.277 64.11-3.678s15.946 46.449-3.677 64.11zM192 192c-70.692 0-128 57.308-128 128s57.308 128 128 128 128-57.308 128-128-57.307-128-128-128z" />
<glyph unicode="&#xe01b;" d="M316.631 225.336c2.789-7.281 4.182-16.029 4.182-26.25 0-21.372-6.272-38.563-18.816-51.572s-30.897-19.515-55.056-19.515c-12.391 0-23.542 1.707-33.452 5.112-9.917 3.403-17.35 6.504-22.301 9.291l8.362 32.987c4.646-2.483 10.918-5.271 18.817-8.362 7.897-3.1 16.646-4.647 26.25-4.647 11.769 0 20.675 3.326 26.715 9.99 6.040 6.657 9.060 15.405 9.060 26.251 0 6.809-1.241 12.615-3.718 17.423-2.482 4.798-5.733 9.059-9.756 12.775-4.028 3.718-8.676 7.042-13.938 9.989-5.271 2.94-10.534 6.112-15.797 9.524-5.271 3.093-10.381 6.737-15.332 10.919-4.958 4.181-9.372 8.98-13.241 14.403-3.877 5.415-6.969 11.615-9.292 18.583-2.323 6.97-3.484 15.1-3.484 24.392 0 20.131 6.272 36.392 18.816 48.784 12.544 12.387 29.503 18.587 50.875 18.587 8.98 0 17.495-1.161 25.554-3.484 8.051-2.323 14.707-4.878 19.979-7.666l-8.828-32.058c-5.575 3.092-11.151 5.415-16.727 6.969-5.575 1.546-11.615 2.323-18.12 2.323-9.915 0-17.813-2.868-23.694-8.595-5.887-5.735-8.828-14.019-8.828-24.857 0-6.199 1.082-11.543 3.252-16.029 2.163-4.494 5.031-8.522 8.596-12.080 3.557-3.564 7.586-6.896 12.079-9.989 4.485-3.1 9.213-6.040 14.171-8.828 5.88-3.411 11.687-7.128 17.422-11.15 5.729-4.030 10.838-8.756 15.332-14.171 4.486-5.424 8.13-11.776 10.918-19.049zM86.622 279.502c9.379 21.103 9.379 47.23 9.379 72.498 0 21.929 0 59.722 6.621 74.62 4.505 10.136 12.944 20.498 41.379 20.498 8.836 0 16 7.163 16 16 0 8.836-7.163 16-16 16-18.292 0-33.032-3.411-45.063-10.43-11.321-6.604-19.92-16.385-25.558-29.073-9.379-21.103-9.379-62.348-9.379-87.616 0-21.928 0-44.604-6.621-59.502-4.505-10.135-12.945-20.497-41.379-20.497-8.837 0-16-7.163-16-16 0-8.837 7.163-15.999 16-15.999 28.435 0 36.874-10.363 41.379-20.5 6.621-14.896 6.621-37.572 6.621-59.501 0-25.268 0-67.392 9.379-88.495 5.638-12.688 14.238-22.468 25.559-29.072 12.031-7.019 26.771-10.43 45.063-10.43 8.836 0 16 7.163 16 16.001 0 8.835-7.163 15.999-16 15.999-28.435 0-36.875 10.362-41.379 20.499-6.621 14.896-6.621 53.568-6.621 75.498 0 25.268 0 51.396-9.379 72.497-4.225 9.504-10.108 17.373-17.552 23.503 7.444 6.128 13.327 14 17.551 23.502zM495.999 272c-28.435 0-36.874 10.362-41.379 20.498-6.621 14.898-6.621 37.574-6.621 59.502 0 25.268 0 66.513-9.378 87.616-5.639 12.688-14.238 22.468-25.56 29.072-12.031 7.019-26.771 10.43-45.062 10.43-8.837 0-16.001-7.163-16.001-16 0-8.837 7.164-16 16.001-16 28.435 0 36.873-10.362 41.379-20.498 6.622-14.898 6.622-52.691 6.622-74.62 0-25.268 0-51.395 9.379-72.498 4.223-9.502 10.105-17.374 17.55-23.501-7.444-6.13-13.327-14-17.55-23.503-9.379-21.102-9.379-47.23-9.379-72.498 0-21.93 0-60.602-6.621-75.498-4.506-10.137-12.944-20.499-41.379-20.499-8.837 0-16.001-7.164-16.001-15.999 0-8.838 7.164-16.001 16.001-16.001 18.291 0 33.030 3.411 45.062 10.43 11.321 6.604 19.921 16.385 25.56 29.072 9.378 21.104 9.378 63.228 9.378 88.495 0 21.929 0 44.604 6.621 59.501 4.505 10.137 12.944 20.5 41.379 20.5 8.837 0 16.001 7.162 16.001 15.999-0.001 8.837-7.165 16-16.002 16z" />
<glyph unicode="&#xe01c;" d="M316.631 225.336c2.789-7.281 4.182-16.029 4.182-26.25 0-21.372-6.272-38.563-18.816-51.572s-30.897-19.515-55.056-19.515c-12.391 0-23.542 1.707-33.452 5.112-9.917 3.403-17.35 6.504-22.301 9.291l8.362 32.987c4.646-2.483 10.918-5.271 18.817-8.362 7.897-3.1 16.646-4.647 26.25-4.647 11.769 0 20.675 3.326 26.715 9.99 6.040 6.657 9.060 15.405 9.060 26.251 0 6.809-1.241 12.615-3.718 17.423-2.482 4.798-5.733 9.059-9.756 12.775-4.028 3.718-8.676 7.042-13.938 9.989-5.271 2.94-10.534 6.112-15.797 9.524-5.271 3.093-10.381 6.737-15.332 10.919-4.958 4.181-9.372 8.98-13.241 14.403-3.877 5.415-6.969 11.615-9.292 18.583-2.323 6.97-3.484 15.1-3.484 24.392 0 20.131 6.272 36.392 18.816 48.784 12.544 12.387 29.503 18.587 50.875 18.587 8.98 0 17.495-1.161 25.554-3.484 8.051-2.323 14.707-4.878 19.979-7.666l-8.828-32.058c-5.575 3.092-11.151 5.415-16.727 6.969-5.575 1.546-11.615 2.323-18.12 2.323-9.915 0-17.813-2.868-23.694-8.595-5.887-5.735-8.828-14.019-8.828-24.857 0-6.199 1.082-11.543 3.252-16.029 2.163-4.494 5.031-8.522 8.596-12.080 3.557-3.564 7.586-6.896 12.079-9.989 4.485-3.1 9.213-6.040 14.171-8.828 5.88-3.411 11.687-7.128 17.422-11.15 5.729-4.030 10.838-8.756 15.332-14.171 4.486-5.424 8.13-11.776 10.918-19.049zM86.622 279.502c9.379 21.103 9.379 47.23 9.379 72.498 0 21.929 0 59.722 6.621 74.62 4.505 10.136 12.944 20.498 41.379 20.498 8.836 0 16 7.163 16 16 0 8.836-7.163 16-16 16-18.292 0-33.032-3.411-45.063-10.43-11.321-6.604-19.92-16.385-25.558-29.073-9.379-21.103-9.379-62.348-9.379-87.616 0-21.928 0-44.604-6.621-59.502-4.505-10.135-12.945-20.497-41.379-20.497-8.837 0-16-7.163-16-16 0-8.837 7.163-15.999 16-15.999 28.435 0 36.874-10.363 41.379-20.5 6.621-14.896 6.621-37.572 6.621-59.501 0-25.268 0-67.392 9.379-88.495 5.638-12.688 14.238-22.468 25.559-29.072 12.031-7.019 26.771-10.43 45.063-10.43 8.836 0 16 7.163 16 16.001 0 8.835-7.163 15.999-16 15.999-28.435 0-36.875 10.362-41.379 20.499-6.621 14.896-6.621 53.568-6.621 75.498 0 25.268 0 51.396-9.379 72.497-4.225 9.504-10.108 17.373-17.552 23.503 7.444 6.128 13.327 14 17.551 23.502zM495.999 272c-28.435 0-36.874 10.362-41.379 20.498-6.621 14.898-6.621 37.574-6.621 59.502 0 25.268 0 66.513-9.378 87.616-5.639 12.688-14.238 22.468-25.56 29.072-12.031 7.019-26.771 10.43-45.062 10.43-8.837 0-16.001-7.163-16.001-16 0-8.837 7.164-16 16.001-16 28.435 0 36.873-10.362 41.379-20.498 6.622-14.898 6.622-52.691 6.622-74.62 0-25.268 0-51.395 9.379-72.498 4.223-9.502 10.105-17.374 17.55-23.501-7.444-6.13-13.327-14-17.55-23.503-9.379-21.102-9.379-47.23-9.379-72.498 0-21.93 0-60.602-6.621-75.498-4.506-10.137-12.944-20.499-41.379-20.499-8.837 0-16.001-7.164-16.001-15.999 0-8.838 7.164-16.001 16.001-16.001 18.291 0 33.030 3.411 45.062 10.43 11.321 6.604 19.921 16.385 25.56 29.072 9.378 21.104 9.378 63.228 9.378 88.495 0 21.929 0 44.604 6.621 59.501 4.505 10.137 12.944 20.5 41.379 20.5 8.837 0 16.001 7.162 16.001 15.999-0.001 8.837-7.165 16-16.002 16zM486.005 475.612c6.899 5.52 16.969 4.401 22.488-2.499 5.521-6.9 4.4-16.969-2.498-22.489l-480-415.115c-2.95-2.359-6.48-3.506-9.985-3.506-4.694 0-9.344 2.056-12.504 6.005-5.521 6.9-4.401 16.969 2.499 22.489" />
<glyph unicode="&#xe01d;" d="M157.72 422.885l-120.401-167.324 120.401-167.325c4.546-7.578 2.089-17.406-5.488-21.953-2.577-1.545-5.416-2.281-8.217-2.282-5.436 0-10.735 2.771-13.735 7.771l-130.28 183.789 130.28 183.789c4.547 7.578 14.375 10.034 21.952 5.488 7.578-4.547 10.035-14.375 5.488-21.953zM381.719 439.349c-4.546 7.577-14.374 10.035-21.951 5.488-7.578-4.546-10.034-14.375-5.488-21.952l120.402-167.325-120.402-167.324c-4.546-7.578-2.090-17.406 5.488-21.953 2.578-1.545 5.414-2.282 8.217-2.282 5.435 0 10.735 2.771 13.734 7.771l130.281 183.789-130.281 183.788zM307.88 478.639c-8.571 2.143-17.26-3.068-19.403-11.641l-95.999-415.115c-2.143-8.572 3.069-17.258 11.642-19.402 1.303-0.325 2.608-0.48 3.892-0.48 7.169 0 13.693 4.853 15.51 12.122l96 415.115c2.143 8.571-3.069 17.259-11.642 19.401z" />
<glyph unicode="&#xe01e;" d="M512 479.117v-447.114h-48.001c-8.837 0-16 7.163-16 16.001 0 8.835 7.163 15.999 16 15.999h16v383.114h-16c-8.837 0-16 7.163-16 16 0 8.836 7.163 16 16 16h48.001zM351.999 463.118c0-8.837 7.164-16 16.001-16h15.999v-383.114h-15.999c-8.837 0-16.001-7.164-16.001-15.999 0-8.838 7.164-16.001 16.001-16.001h48v447.113h-48c-8.837 0-16.001-7.163-16.001-15.999zM307.88 478.639c-8.571 2.143-17.26-3.068-19.403-11.641l-95.999-415.115c-2.143-8.572 3.069-17.258 11.642-19.402 1.303-0.325 2.608-0.48 3.892-0.48 7.169 0 13.693 4.853 15.51 12.122l96 415.115c2.143 8.571-3.069 17.259-11.642 19.401zM48.001 447.117c8.836 0 16 7.163 16 16 0 8.836-7.164 16-16 16h-48v-447.114h48c8.836 0 16 7.163 16 16.001 0 8.835-7.164 15.999-16 15.999h-16v383.114h16zM144.001 447.117c8.836 0 16 7.163 16 16 0 8.836-7.163 16-16 16h-48v-447.114h48c8.836 0 16 7.163 16 16.001 0 8.835-7.163 15.999-16 15.999h-16.001v383.114h16.001z" />
<glyph unicode="&#xe01f;" d="M437.020 437.019c48.351-48.352 74.98-112.64 74.98-181.020s-26.629-132.667-74.98-181.019c-48.353-48.351-112.64-74.98-181.020-74.98-68.38 0-132.667 26.629-181.020 74.98-48.351 48.352-74.98 112.639-74.98 181.019 0 68.38 26.627 132.668 74.98 181.020 48.353 48.352 112.64 74.981 181.020 74.981 68.38 0 132.667-26.629 181.020-74.981zM414.392 97.607c31.529 31.53 52.493 70.804 61.136 113.531-6.737-9.918-13.181-13.597-17.172 8.603-4.11 36.195-37.354 13.074-58.258 25.93-22.002-14.829-71.453 28.831-63.049-20.412 12.967-22.211 70.004 29.725 41.574-17.271-18.137-32.808-66.321-105.466-60.053-143.129 0.791-54.872-56.067-11.442-75.657 6.76-13.178 36.46-4.491 100.187-38.949 118.043-37.401 1.624-69.502 5.023-83.997 46.835-8.723 29.914 9.282 74.447 41.339 81.322 46.925 29.483 63.687-34.527 107.695-35.717 13.664 14.297 50.908 18.843 53.996 34.875-28.875 5.095 36.634 24.279-2.764 35.191-21.735-2.556-35.739-22.537-24.184-39.479-42.119-9.821-43.468 60.952-83.955 38.629-1.029-35.295-66.111-11.443-22.518-4.286 14.978 6.544-24.43 25.508-3.14 22.062 10.458 0.568 45.666 12.906 36.138 21.201 19.605 12.17 36.080-29.145 55.269 0.941 13.854 23.133-5.81 27.404-23.175 15.678-9.79 10.962 17.285 34.638 41.166 44.869 7.959 3.41 15.561 5.268 21.373 4.742 12.029-13.896 34.275-16.303 35.439 1.671-29.791 14.267-62.638 21.804-96.646 21.804-48.811 0-95.235-15.512-133.654-44.195 10.325-4.73 16.186-10.619 6.239-18.148-7.728-23.027-39.085-53.938-66.612-49.562-14.293-24.648-23.706-51.803-27.73-80.264 23.056-7.628 28.372-22.725 23.418-27.775-11.748-10.244-18.968-24.765-22.688-40.661 7.505-45.918 29.086-88.238 62.635-121.788 42.308-42.307 98.559-65.607 158.392-65.607 59.832 0 116.084 23.3 158.392 65.607z" />
</font>
</defs>
</svg>
